Double strapon slut

 
General

Format : MPEG-4
Format profile : Base Media
Codec ID : isom
File size : 447 MiB
Duration : 12mn 6s
Overall bit rate : 5 154 Kbps
Encoded date : UTC 2014-07-20 08:54:23
Tagged date : UTC 2014-07-20 08:54:23
Writing application : Lavf55.11.101

Video
ID : 1
Format : AVC
Format/Info : Advanced Video Codec
Format profile : High@L4.1
Format settings, CABAC : Yes
Format settings, ReFrames : 2 frames
Codec ID : avc1
Codec ID/Info : Advanced Video Coding
Duration : 12mn 6s
Duration_FirstFrame : -33ms
Bit rate : 4 987 Kbps
Width : 960 pixels
Height : 540 pixels
Display aspect ratio : 16:9
Frame rate mode : Variable
Frame rate : 29.970 fps
Minimum frame rate : 29.970 fps
Maximum frame rate : 30.030 fps
Color space : YUV
Chroma subsampling : 4:2:0
Bit depth : 8 bits
Scan type : Progressive
Bits/(Pixel*Frame) : 0.321
Stream size : 432 MiB (97%)
Writing library : x264 core 135 r2345
Encoding settings : cabac=1 / ref=2 / deblock=1:0:0 / analyse=0×3:0×133 / me=hex / subme=7 / psy=1 / psy_rd=1.00:0.00 / mixed_ref=0 / me_range=16 / chroma_me=1 / trellis=1 / 8x8dct=1 / cqm=0 / deadzone=21,11 / fast_pskip=1 / chroma_qp_offset=-2 / threads=6 / lookahead_threads=1 / sliced_threads=0 / nr=0 / decimate=1 / interlaced=0 / bluray_compat=0 / constrained_intra=0 / bframes=3 / b_pyramid=0 / b_adapt=1 / b_bias=0 / direct=3 / weightb=1 / open_gop=0 / weightp=2 / keyint=290 / keyint_min=29 / scenecut=40 / intra_refresh=0 / rc_lookahead=40 / rc=crf / mbtree=1 / crf=13.0 / qcomp=0.60 / qpmin=10 / qpmax=69 / qpstep=4 / vbv_maxrate=24000 / vbv_bufsize=24000 / crf_max=0.0 / nal_hrd=none / ip_ratio=1.40 / aq=1:1.00
Encoded date : UTC 2014-07-20 08:54:23
Tagged date : UTC 2014-07-20 08:54:23

Audio
ID : 2
Format : AAC
Format/Info : Advanced Audio Codec
Format profile : LC
Codec ID : 40
Duration : 12mn 6s
Duration_FirstFrame : -23ms
Bit rate mode : Constant
Bit rate : 160 Kbps
Channel(s) : 2 channels
Channel positions : Front: L R
Sampling rate : 44.1 KHz
Compression mode : Lossy
Stream size : 13.9 MiB (3%)
Encoded date : UTC 2014-07-20 08:54:23
Tagged date : UTC 2014-07-20 08:54:23

Download :

http://dfiles.ru/files/zgve7ubbc
http://rapidgator.net/file/8a53b48f380aa71d96f7ad00b79f092d/Double_strapon_slut.zip.html